#TITLE:偶然;
#SUBTITLE:;
#ARTIST:Baby V.O.X;
#TITLETRANSLIT:;
#SUBTITLETRANSLIT:;
#ARTISTTRANSLIT:;
#CREDIT:;
#BANNER:żȻ-logo.jpg;
#BACKGROUND:żȻ.jpg;
#LYRICSPATH:;
#CDTITLE:Lan.png;
#MUSIC:żȻ.mp3;
#OFFSET:-0.020;
#SAMPLESTART:100.000;
#SAMPLELENGTH:12.000;
#SELECTABLE:YES;
#BPMS:0.000=126.830;
#STOPS:;
#BGCHANGES:;
// cache tags:
#FIRSTBEAT:4.000;
#LASTBEAT:332.000;
#SONGFILENAME:Songs/Super Dancer Online/żȻ/żȻ.sm;
#HASMUSIC:1;
#HASBANNER:1;
#MUSICLENGTH:160.486;
// end cache tags

//---------------dance-single - 标准----------------
#NOTES:
     dance-single:
     标准:
     Hard:
     8:
     0.733,0.802,1.000,0.000,0.368,653.000,166.000,0.000,0.000,4.000:


0000
0000
0000
0000
,
1001
0000
0010
0000
0000
0000
0010
1001
,
1100
0001
0000
0001
,
1010
0000
0001
0000
0000
0000
0001
1010
,
1100
0010
0000
0010
,
1100
0010
1001
0010
1000
0010
1101
0010
,
1000
0010
1001
0010
1100
0010
1001
0010
,
1001
0010
1100
0010
1001
0010
1100
0010
,
1001
0000
0000
0110
,
0101
0000
0000
0101
1000
0000
0001
0000
1000
0000
0000
1010
0001
0000
1000
0000
,
0110
0000
0000
0101
1000
0000
0001
0000
1010
0000
0001
0000
1010
0000
0001
0000
,
0100
0000
0000
0101
1000
0000
0001
0000
1000
0000
0000
1010
0001
0000
1000
0000
,
0110
0000
0000
0101
1000
0000
0001
0000
1010
0000
0101
0000
0010
0000
0101
0000
,
0110
0000
0000
0101
1000
0000
0001
0000
1000
0000
0000
1010
0001
0000
1000
0000
,
0110
0000
0000
0101
1000
0000
0001
0000
1010
0000
0001
0000
1010
0000
0001
0000
,
0110
0000
0000
0101
1000
0000
0001
0000
1000
0000
0000
1010
0001
0000
1000
0000
,
0110
0000
1000
0000
0010
0100
0000
0001
1000
0010
0001
0000
0010
0000
0100
0000
,
1001
0001
1000
0001
,
1100
0000
0001
1000
1000
0000
0001
0000
,
1001
0001
1100
0001
,
1001
0000
0001
1000
1000
0000
0001
0000
,
1000
0010
0101
0010
1000
0010
0101
0010
,
1000
0100
0011
0100
1000
0100
0011
0100
,
1010
0001
1100
0001
1000
0001
1100
0001
,
1010
0000
0000
0000
1000
0100
0010
0001
1000
0000
0000
0000
1000
0000
0010
0000
0100
0000
0001
0000
0000
0000
0000
0000
0010
0000
0000
0000
0100
0000
0100
0000
,
1001
0000
0010
0000
0001
0000
1000
0000
0010
0000
0100
0010
1000
0000
0001
0000
,
1000
0000
0010
0100
0001
0000
1000
0000
0010
0000
0100
0010
1001
0000
1000
0000
,
0110
0000
0100
0001
1000
0000
0010
0000
1000
0000
0010
0100
0001
0000
1000
0000
,
0010
0000
0100
0001
1000
0000
0010
0000
1000
0000
0010
0100
1001
0000
0001
0000
,
1001
0000
0010
0100
0001
0000
1000
0000
0101
0000
1000
0010
0100
0000
0001
0000
,
1100
0000
0010
1000
0001
0000
0100
0000
0001
0000
0100
0010
1000
0000
1000
0000
,
0011
0000
0100
0001
1000
0000
0010
0000
0100
0000
1000
0001
0100
0000
0010
0000
,
1001
0000
0100
0000
1010
0000
0001
0000
1001
0100
0010
0001
1000
0100
0010
0001
,
1100
0000
0001
0000
1000
0000
0001
1000
,
1000
0001
1000
0001
,
1000
0010
1000
0001
1000
0010
1000
0001
,
1000
0100
1000
0001
1000
0100
1000
0001
,
1000
0000
0001
0000
1000
0000
0001
1000
,
1000
0000
0001
0000
1000
0000
0001
0100
,
1000
0010
1000
0001
1000
0100
1000
0101
,
1010
0000
0000
0000
0000
0000
1001
0100
,
0011
0000
0100
0010
1000
0000
0001
0000
0100
0000
0010
0100
0001
0000
1000
0000
,
0001
0000
0100
0010
1000
0000
0001
0000
0100
0000
0010
0100
0001
0000
0100
0000
,
1001
0000
0100
0010
1000
0000
0001
0000
0100
0000
0010
0100
0001
0000
1000
0000
,
0001
0000
0100
0010
1000
0000
0001
0000
1000
0000
0010
0100
1001
0000
0010
0000
,
0001
0000
1000
0001
1000
0000
0010
0000
0100
0000
0001
1000
0001
0000
0100
0000
,
0010
0000
1000
0001
1000
0000
0010
0000
0100
0000
0001
1000
0001
0000
0100
0000
,
1001
0000
0100
0010
0100
0000
0001
0000
1000
0000
0010
0100
0010
0000
1000
0001
,
0100
0010
0000
0000
1000
0000
0001
0100
0010
1000
0001
0100
0010
1000
0001
0100
,
1010
0000
0100
0010
1000
0000
0001
0000
1010
0000
0001
0100
0001
0000
1000
0000
,
0001
0000
1000
0010
0101
0000
1000
0000
0100
0000
1001
0010
0101
0000
0100
0000
,
1001
0000
0100
0001
1010
0000
0100
0000
1010
0000
0001
0010
1100
0000
0010
0000
,
1001
0000
0010
0100
0010
0000
1001
0000
0100
0000
0001
0010
1100
0000
1000
0000
,
0101
0000
1000
0010
1001
0000
0010
0000
1000
0000
0101
0010
0100
0000
0001
0000
,
1010
0000
1001
0100
0010
0000
0100
0000
1001
0000
0100
0010
1001
0000
0001
0000
,
1100
0000
0010
0001
0000
0000
0100
0000
0010
0100
1000
0000
0001
0000
0100
0010
,
1001
0000
0010
0000
0100
0000
0010
0001
1000
0100
0010
0001
1000
0100
0010
0100
,
1001
0000
0000
0000
,
0000
0000
0000
0000
0000
0000
0000
1000
,
1001
0000
0010
0000
0000
0000
0010
1001
,
1100
0001
0000
0001
,
1010
0000
0001
0000
0000
0000
0001
1010
,
1100
0010
0000
0010
,
1100
1001
1010
1101
,
1010
1001
1010
1001
,
1101
1010
1001
1010
,
1001
0000
0000
0000
0000
0000
1001
0010
,
1101
0000
0010
0100
1001
0000
0100
0000
0010
0000
0100
0010
1001
0000
0010
0000
,
1000
0000
0010
0100
1001
0000
0100
0000
0010
0000
0100
0010
1001
0000
0010
0000
,
1001
0000
0010
0100
0011
0000
1100
0000
0010
0000
0100
0010
1001
0000
0001
0000
,
1010
0000
0010
0100
0001
0000
1010
0000
0101
0000
0100
0010
1001
0000
0100
0000
,
1010
0000
0001
1000
0101
0000
0010
0000
0100
0000
1000
0001
1010
0000
0100
0000
,
1010
0000
0001
1000
0001
0000
1010
0000
0101
0000
1000
0001
1000
0000
0010
0000
,
1001
0000
0010
0100
1010
0000
0001
0000
1000
0000
0100
0010
0101
0000
0001
1000
,
0011
0100
0000
0000
1001
0000
1000
0001
0100
0010
1000
0001
0100
0010
1000
0001
,
0110
0000
0010
0000
1001
0000
0110
0000
1001
0000
1000
0100
0011
0000
1000
0000
,
0101
0000
1000
0010
1000
0000
0101
0000
1010
0000
0001
0100
0001
0000
1000
0000
,
0101
0000
0010
0001
1100
0000
0010
0000
0101
0000
1010
0100
0010
0000
0100
0000
,
1001
0000
0001
0010
0100
0000
1001
0000
0010
0000
1001
0100
0010
0000
0100
0000
,
1001
0000
0010
0100
1000
0000
0001
0000
1010
0000
0100
0010
0001
0000
1000
0000
,
0110
0000
1001
0100
0010
0000
1000
0000
0001
0000
0101
0010
1000
0000
1000
0000
,
0011
0000
0100
1000
0000
0000
0100
0000
0010
0001
0010
0000
0001
0000
1000
0100
,
0011
0000
1000
0000
0101
0000
0010
0100
1001
0010
0100
1000
0001
0100
0010
0100
,
1001
0000
0000
0000
;
